#TITLE:sEXY pLANET x;
#SUBTITLE:;
#ARTIST:Crystal Aliens X;
#TITLETRANSLIT:;
#SUBTITLETRANSLIT:;
#ARTISTTRANSLIT:;
#CREDIT:;
#BANNER:Sexy Planet-banner.png;
#BACKGROUND:Sexy Planet-bg.png;
#LYRICSPATH:;
#CDTITLE:;
#MUSIC:sEXY pLANET x.mp3;
#MUSICLENGTH:96.992;
#OFFSET:-0.140;
#SAMPLESTART:58.485;
#SAMPLELENGTH:12.000;
#SELECTABLE:YES;
#BPMS:0.000=180.680;
#STOPS:;
#BGCHANGES:;
#FIRSTBEAT:16.000;

#LASTBEAT:288.000;

#SONGFILENAME:Songs/ERICth MIX 2nd Style/sexy planet x/sexy planet.sm;

#HASMUSIC:1;

#HASBANNER:1;


//---------------dance-single - MANIAC----------------
#NOTES:
     dance-single:
     MANIAC:
     hard:
     6:
     0.541,0.668,0.608,0.371,0.000,272.000,59.000,36.000,0.000,0.000:

0000
0000
0000
0000
,
0000
0000
0000
0000
,
0000
0000
0000
0000
,
0000
0000
0000
0000
,
1000
0010
1000
0010
,
1000
0100
1000
0100
,
1000
0001
1000
0001
,
1000
0001
1000
0000
0220
0000
0330
0000
,
1100
0000
0000
1100
0000
0000
1100
0000
,
1100
0000
0000
1100
0000
0000
1100
0000
,
0101
0000
0000
0101
0000
0000
0101
0000
,
0101
0101
0202
0303
,
0011
0000
0000
0011
0000
0000
0011
0000
,
0011
0000
0000
0011
0000
0000
0011
0000
,
1100
0000
0000
1100
0000
0000
1100
0000
,
1100
1100
2200
3300
,
2000
0000
0000
0000
,
3020
0000
0000
0000
,
0032
0000
0000
0000
,
0023
0000
0000
0000
,
2030
0000
0000
0000
,
3200
0000
0000
0000
,
0302
0000
0000
0000
,
0203
0000
0000
0000
,
1300
0100
0010
0001
1000
0100
0010
0001
,
1000
0100
0010
0001
1000
0100
0010
0001
,
1000
0100
1000
0100
1000
0100
1000
0100
,
1000
0001
1000
0001
2002
0000
3003
0000
,
1001
1100
0011
0101
,
1010
0000
0010
0200
0000
0000
0300
0000
,
1000
0100
0010
0001
,
1000
0100
0010
0002
0000
0000
0003
0000
,
0110
1100
0101
0110
,
1001
0000
1000
0002
0000
0000
0003
0000
,
0100
0001
1000
0010
,
0100
0001
1000
0020
0000
0000
0030
0000
,
1001
1100
0011
0101
,
1010
0000
0010
0200
0000
0000
0300
0000
,
1000
0100
0010
0001
,
1000
0100
0010
0002
0000
0000
0003
0000
,
0110
1100
0101
0110
,
1001
0000
1000
0002
0000
0000
0003
0000
,
0100
0001
1000
0010
,
0100
0001
1000
0020
0000
0000
0030
0000
,
0100
0000
0000
0100
0000
0000
0100
0000
,
0010
0000
0000
0010
0000
0000
0010
0000
,
0100
0000
0100
0000
0100
0010
0100
0000
,
0000
0110
0000
0000
1001
0000
1001
0000
,
1000
0100
0000
0100
0000
0000
0000
0000
,
0000
1000
0000
0100
0000
1000
0100
0000
,
1100
0000
0000
2200
0000
0000
3300
0000
,
1000
1100
0100
1100
,
0010
0001
0000
0001
0000
0000
0000
0000
,
0000
0010
0000
0010
0001
0010
0001
0000
,
0011
0000
0000
0022
0000
0000
0033
0000
,
0001
0011
0010
0011
,
0010
1000
0100
1000
0001
1000
0100
1000
,
0010
1000
0100
1000
0001
1000
0100
1000
,
0010
1000
0010
1000
0010
1000
0010
1000
,
0010
1000
0001
1000
2002
0000
3003
0000
,
1000
0100
1000
0000
0001
0100
0001
0000
,
1000
0001
1000
0002
0000
0000
0003
0000
,
1000
0001
0100
0010
,
1000
0001
0100
0020
0000
0000
0030
0000
,
0001
0010
0001
0000
1000
0010
1000
0000
,
0001
1000
0001
2000
0000
0000
3000
0000
,
0100
0010
1000
0001
,
0100
0010
1000
0002
0000
0000
0003
0000
,
1000
0001
1000
0001
1000
0001
1000
0001
,
1000
0001
1000
0001
1000
0001
1000
0001
,
0100
0010
0100
0010
0100
0010
0100
0010
,
0100
0010
0100
0010
0220
0000
0000
0000
,
0330
0000
0000
0000;

//---------------dance-single - ANOTHER----------------
#NOTES:
     dance-single:
     ANOTHER:
     medium:
     4:
     0.393,0.629,0.062,0.113,0.000,250.000,6.000,11.000,0.000,0.000:

0000
0000
0000
0000
,
0000
0000
0000
0000
,
0000
0000
0000
0000
,
0000
0000
0000
0000
,
0001
0000
1000
0000
,
0001
0000
0100
0000
,
0010
0000
0100
0000
,
0010
0010
0010
0010
,
1000
0001
1000
0001
0000
0000
0001
0000
,
0001
1000
0001
1000
0000
0000
0001
0000
,
1000
0010
1000
0010
0000
0000
0010
0000
,
1000
0010
1000
0010
0000
0000
0010
0000
,
1000
0001
1000
0001
0000
0000
0001
0000
,
1000
0001
1000
0001
0000
0000
0001
0000
,
1000
0010
1000
0010
0000
0000
0010
0000
,
1000
0010
1000
0010
0000
0000
0000
0000
,
0200
0000
0000
0000
,
0302
0000
0000
0000
,
0203
0000
0000
0000
,
0320
0000
0000
0000
,
2030
0000
0000
0000
,
3200
0000
0000
0000
,
0320
0000
0000
0000
,
0100
0000
0100
0000
0100
0000
0100
0030
,
1000
0100
1000
0100
,
1000
0001
1000
0001
,
1000
0010
1000
0010
1000
0010
1000
0010
,
1000
0010
1010
0000
2002
0000
0000
3003
,
0001
1000
0010
1000
,
0100
0010
0100
1000
0000
0000
0000
0000
,
0001
0000
0100
0000
,
0010
0000
0100
0000
,
0001
0010
0100
0010
,
0001
0100
0010
0100
0000
0000
0000
0000
,
0001
0000
1000
0000
,
0100
0010
0100
0000
,
0001
1000
0100
0010
,
0001
0000
0100
0000
0010
0000
0100
0010
,
1000
0001
0100
0010
,
0001
0000
0100
0001
0100
0000
0000
0000
,
0001
1000
0010
0100
,
0001
0010
0001
0100
,
0001
0000
1000
0000
0100
0010
0100
0000
,
1000
0000
0001
1000
0001
0000
0000
0000
,
1000
0000
0000
1000
0000
0000
1000
0000
,
1000
0000
0000
1000
0000
1000
0000
0000
,
0010
0000
0010
0000
0010
0010
0010
0000
,
0000
0001
0000
0000
0001
0000
0001
0000
,
0100
0000
0000
1000
0000
0000
0000
0000
,
0000
0010
0000
1000
0000
0001
0100
0000
,
0010
0000
0000
1000
0000
0000
0000
0000
,
0001
1000
0001
0000
0001
1000
0001
0000
,
0001
0000
0000
1000
0000
0000
0000
0000
,
0000
0010
0000
0100
0000
0001
0010
0000
,
0100
0000
0000
1000
0000
0000
0000
0000
,
0100
1000
0010
0000
,
0001
1000
0001
1000
0001
1000
0001
1000
,
0001
1000
0001
1000
0001
1000
0001
1000
,
0001
1000
0001
1000
0001
1000
0001
1000
,
0001
1000
0001
1000
0001
0000
0000
0000
,
0001
1000
0010
0100
,
1000
0001
0100
0010
0000
0000
0000
0000
,
0001
1000
0001
1000
,
0010
1000
0100
1000
0000
0000
0000
0000
,
0001
0010
0001
0100
,
1000
0100
0001
0100
0000
0000
0000
0000
,
0001
0000
0010
0000
0001
0100
0001
0000
,
0000
0000
0001
0000
,
1000
0000
0001
0000
,
0001
1000
0001
1000
,
1001
0001
1001
0001
,
1001
0001
2002
3003;

//---------------dance-single - BASIC----------------
#NOTES:
     dance-single:
     BASIC:
     easy:
     2:
     0.177,0.370,0.103,0.062,0.000,104.000,10.000,6.000,0.000,0.000:

0000
0000
0000
0000
,
0000
0000
0000
0000
,
0000
0000
0000
0000
,
0000
0000
0000
0000
,
0010
0000
0000
0000
,
0000
0000
0000
0000
,
0010
0000
0000
0000
,
0010
0000
0010
0000
,
0001
0000
0000
0000
,
1000
0000
0000
0000
,
0001
0000
0000
0000
,
1000
0001
1000
0000
,
0100
0000
0000
0000
,
0010
0000
0000
0000
,
0100
0000
0000
0000
,
0010
0100
0010
0000
,
2000
0000
0000
0000
,
0000
0000
0000
0000
,
0020
0000
0000
0000
,
0000
0000
0000
3030
,
0002
0000
0000
0000
,
0000
0000
0000
0000
,
0200
0000
0000
0000
,
0000
0000
0000
0303
,
1000
0000
0001
0000
,
1000
0000
0001
0000
,
1000
0000
0001
0000
,
1000
0001
1001
0000
,
1000
0000
0000
0000
,
0010
0001
0010
0000
,
0100
0000
0000
0000
,
0010
1000
0010
0000
,
0100
0000
0000
0000
,
0001
1000
0001
0000
,
0010
0000
0000
0000
,
1000
0001
1000
0000
,
1001
0000
0000
0000
,
0100
0000
0100
0000
,
0000
0000
0000
0000
,
0010
0000
0010
0000
,
0110
0000
0000
0000
,
1000
0000
1000
0000
,
0000
0000
0000
0000
,
0001
0000
0001
0000
,
1000
0000
0000
0000
,
1010
0000
0000
0000
,
0001
0000
0000
0000
,
0011
0011
0011
0011
,
0001
0000
0000
0000
,
1000
0000
0000
0000
,
0100
0000
0100
0000
,
0100
0000
0100
0100
,
0100
0000
0000
0000
,
0000
0000
0000
0000
,
0010
0000
0000
0000
,
0010
0001
0010
0000
,
0001
0000
0000
0000
,
0001
0000
0000
0000
,
0001
0000
0001
0000
,
0001
0001
1001
0000
,
0001
0000
0100
0000
,
0010
0000
1000
0000
,
1000
0000
0100
0000
,
0100
0000
0010
0000
,
0010
0000
0001
0000
,
0001
0000
0100
0000
,
0100
0000
0010
0000
,
0010
0000
1000
0000
,
1000
0000
0000
0000
,
0001
0000
0000
0000
,
1000
0000
0001
0000
,
1000
0001
2002
3003;
